2 сезон

iTunes

WEBRip

1

2 сезон

iTunes

1 сезон

1 сезон

RePack

30

Новинка

ВАЖНО

ИГРА 18+

pack

RePack

MK11
pack

Легкие деньги

RePack

jed

RePack

fifa19

RePack

RDR2

RePack

NEED FOR SPEED™ PAYBACK

4 сезон

9 сезон

Бесстыжие 9 сезон

Все сериалы

все сериалы на PB.wtf

RePack

FAR CRY 5

Anonymous, добрый вечер, мы не успеваем собрать деньги на оплату серверов за февраль, помогите нам пожалуйста в это трудное время. В качестве благодарности мы отключим Вам всю рекламу на сайте (укажите свой ник в строку Ваше имя)!

×
  
Magnet ссылка

Окись / Синий порох / Powder Blue (Тимоти Лин Буи) [2009 г., драма, BDRip, MVO + Профессиональный двухголосый + Оригинал] planb.fun

Окись через торрент planb.fun

Размер: 1.45 GB | Добавлен: 7 лет 11 мес. назад | Торрент скачан:119 раз
Скачать  

06-03-2013 13:23 Окись Скачать торрент  

Окись / Синий порох / Powder Blue
«На изломе судьбы»

Год выпуска: 2009
Страна: США
Жанр: драма
Продолжительность: 01:46:02
Перевод: Профессиональный (многоголосый, закадровый) R5 + Профессиональный (двухголосый закадровый) + Оригинал (Английский)

Режиссер: Тимоти Лин Буи
Продюссер: Тимоти Лин Буи, Росс М. Динерштейн, Бобби Шварц
Сценарий: Тимоти Лин Буи, Стефани Гэйгер

Премьера в мире: 12 ноября 2009

В ролях: Джессика Бил, Эдди Редмэйн, Форест Уитакер, Рэй Лиотта, Лиза Кудроу, Патрик Суэйзи, Крис Кристофферсон, Алехандро Ромеро, Санаа Лэтэн, Чандлер Кентербери, Джеффри А. Бэйкер, Навид Негабан, Рави Патель, Билли Уэрт, Дон Суэйзи, Бен Брэй, Джо Холт, Л. Скотт Колдуэлл, Мэнди Джун Турпин, Армандо Косио, Рики Линдхоум, Джесси Хенеке, Ана Берри, Leyna Nguyen, Чад Кристофер, Соледад Кампос, Клинт Бауэрс, Дэнди Пэм

Описание: Главные герои картины — четверо маргиналов — гробовщик, бывший жулик, бывший священник с суицидальными наклонностями и стриптизерша, которых причудливое стечение обстоятельств сводит вместе в сочельник.

Качество: BDRip (Исходник BDRemux 1080p)
Формат: AVI
Видео кодек: XviD
Аудио кодек: AC3
Видео: 720х304, 24,000 fps, 1364 kbps, 0.260 bit/pixel
Аудио#1: 48 kHz, AC3 2.0, 192.00 kbps / Профессиональный (многоголосый закадровый) R5
Аудио#2: 48 kHz, AC3 2.0, 192.00 kbps / Профессиональный (двухголосый закадровый)
Аудио#3: 48 kHz, AC3 2.0, 192.00 kbps / Оригинал (Английский)
Субтитры: Английские (srt) / внешние
&
Общее
Полное имя : E:Фильмы МPowder.Blue.2009.BDRipPowder Blue.2009.BDRip.avi
Формат : AVI
Формат/Информация : Audio Video Interleave
Размер файла : 1,45 Гбайт
Продолжительность : 1 ч. 46 м.
Общий поток : 1958 Кбит/сек
Программа кодирования : VirtualDubModRus 1.5.10.2 (build 2542/release)
Библиотека кодирования : VirtualDubMod build 2542/release

Видео
Идентификатор : 0
Формат : MPEG-4 Visual
Профиль формата : Advanced [email protected]
Параметр BVOP формата : 1
Параметр QPel формата : Нет
Параметр GMC формата : Без точки перехода
Параметр матрицы формата : Выборочная
Режим смешивания : Сжатый битовый поток
Идентификатор кодека : XVID
Идентификатор кодека/Подсказка : XviD
Продолжительность : 1 ч. 46 м.
Битрейт : 1364 Кбит/сек
Ширина : 720 пикселей
Высота : 304 пикселя
Соотношение сторон : 2,35:1
Частота кадров : 24,000 кадра/сек
Цветовое пространство : YUV
Субдискретизация насыщенности : 4:2:0
Битовая глубина : 8 бит
Тип развёртки : Прогрессивная
Метод сжатия : С потерями
Бит/(Пиксели*Кадры) : 0.260
Размер потока : 1,01 Гбайт (70%)
Библиотека кодирования : XviD 65

Аудио #1
Идентификатор : 1
Формат : AC-3
Формат/Информация : Audio Coding 3
Расширение режима : CM (complete main)
Параметр Endianness формата : Big
Идентификатор кодека : 2000
Продолжительность : 1 ч. 46 м.
Вид битрейта : Постоянный
Битрейт : 192 Кбит/сек
Каналы : 2 канала
Расположение каналов : Front: L R
Частота : 48,0 КГц
Битовая глубина : 16 бит
Метод сжатия : С потерями
Размер потока : 146 Мбайт (10%)
Выравнивание : Разделение по промежуткам
Продолжительность промежутка : 42 мс. (1,00 видеокадр)
Время предзагрузки промежутка : 500 мс.
Заголовок : Профессиональный (многоголосый, закадровый) R5

Аудио #2
Идентификатор : 2
Формат : AC-3
Формат/Информация : Audio Coding 3
Расширение режима : CM (complete main)
Параметр Endianness формата : Big
Идентификатор кодека : 2000
Продолжительность : 1 ч. 46 м.
Вид битрейта : Постоянный
Битрейт : 192 Кбит/сек
Каналы : 2 канала
Расположение каналов : Front: L R
Частота : 48,0 КГц
Битовая глубина : 16 бит
Метод сжатия : С потерями
Размер потока : 146 Мбайт (10%)
Выравнивание : Разделение по промежуткам
Продолжительность промежутка : 42 мс. (1,00 видеокадр)
Время предзагрузки промежутка : 500 мс.
Заголовок : Профессиональный (двухголосый закадровый)

Аудио #3
Идентификатор : 3
Формат : AC-3
Формат/Информация : Audio Coding 3
Расширение режима : CM (complete main)
Параметр Endianness формата : Big
Идентификатор кодека : 2000
Продолжительность : 1 ч. 46 м.
Вид битрейта : Постоянный
Битрейт : 192 Кбит/сек
Каналы : 2 канала
Расположение каналов : Front: L R
Частота : 48,0 КГц
Битовая глубина : 16 бит
Метод сжатия : С потерями
Размер потока : 146 Мбайт (10%)
Выравнивание : Разделение по промежуткам
Продолжительность промежутка : 42 мс. (1,00 видеокадр)
Время предзагрузки промежутка : 500 мс.
Заголовок : Оригинал (Английский)


Окись скачать торрент


planb.fun



Скачать Окись через торрент http://i52.fastpic.ru/big/2013/0306/94/59594a886abf248fbfafd8c48fb5f494.jpg Скачать фильм Окись через торрент бесплантно в хорошем качестве Описание: Главные герои картины — четверо маргиналов — гробовщик, бывший жулик, бывший священник с суицидальными наклонностями и ... 8 10 3
Info! Золотая раздача, скачанное не засчитывается.
Торрент: Зарегистрирован [2013-03-06 13:23] · скачан: 119 раз
Статус: √ проверено
Размер: 1.45 GB
Как cкачать? Как скачать Окись через торрент | UTorrent

28-11-2019 20:33  

Отключить всю рекламу на сайте

18-01-2019 08:46 Окись Скачать торрент  

Фильм найдет сочувствие и понимание у читательниц глянцевых журналов, женских романов и подростков, понравится поклонникам фильма *Куда приводят мечты*. Это не критика, а личная оценка увиденного. Картина рассчитана на специфическое эмоциональное восприятие, сочетающееся с отсутствием серьезного негативного жизненного опыта. Качество, перевод, озвучивание хорошие. Спасибо за раздачу.planb.fun



    Дорогой пользователь! Огромная просьба, поблагодарите релизера, оцените раздачу и оставьте свои комментарий, если Вы скачали Окись через торрент бесплатно! Внесите свою лепту в развитие PiratBit!
    Комментировать посты могут только пользователи прошедшие не сложную регистрацию
    Показать сообщения:    

    Окись через торрент
    Скачать бесплатно Окись
    Окись скачать торрент
    Окись смотреть онлайн
    Cкачать фильм Окись бесплатно
    Окись скачать торрент в хорошем качестве
    Окись смотреть онлайн бесплатно в хорошем качестве


    Вы не можете начинать темы
    Вы не можете отвечать на сообщения
    Вы не можете редактировать свои сообщения
    Вы не можете удалять свои сообщения
    Вы не можете голосовать в опросах
    Вы не можете прикреплять файлы к сообщениям
    Вы можете скачивать файлы