2 сезон

iTunes

WEBRip

1

2 сезон

iTunes

1 сезон

1 сезон

RePack

30

Новинка

ВАЖНО

ИГРА 18+

pack

RePack

MK11
pack

Легкие деньги

RePack

jed

RePack

fifa19

RePack

RDR2

RePack

NEED FOR SPEED™ PAYBACK

4 сезон

9 сезон

Бесстыжие 9 сезон

Все сериалы

все сериалы на PB.wtf

RePack

FAR CRY 5

Anonymous, доброе утро, мы не успеваем собрать деньги на оплату серверов за февраль, помогите нам пожалуйста в это трудное время. В качестве благодарности мы отключим Вам всю рекламу на сайте (укажите свой ник в строку Ваше имя)!

×
  
Magnet ссылка

Одержимость / Obsessed (Стив Шилл) [2009, триллер, драма , HDTVRip,MVO] planb.fun

Одержимость через торрент planb.fun

Размер: 2.19 GB | Добавлен: 7 лет 5 мес. назад | Торрент скачан:88 раз
Скачать  

06-09-2013 11:55 Одержимость Скачать торрент  

Одержимость / Obsessed

Год выпуска: 2009
Страна: США
Жанр: триллер, драма
Продолжительность: 01:48:22
Перевод: Профессиональный (многоголосый закадровый)

Режиссер: Стив Шилл
Сценарий: Дэвид Локери
Продюсер: Уильям Пэкер, Джордж Флинн, Гленн С. Гейнор, ...


Бюджет: $20 000 000
Сборы в США: $68 261 644
Сборы в мире: + $5 568 696 = $73 830 340
Зрители: США 9.1 млн , Великобритания 95.3 тыс. , Германия 60 тыс.
Премьера (мир): 23 апреля 2009, ...
Релиз на DVD: 9 июля 2009, «Columbia/Sony», ...
Релиз на Blu-Ray: 20 августа 2009, «Columbia/Sony», ...
Рейтинг MPAA: Детям до 13 лет просмотр не желателен


В ролях: Идрис Эльба / Idris Elba (Derek), Бейонсе Ноулз / Beyonce Knowles (Sharon), Эли Лартер / Ali Larter (Lisa), Джерри О’Коннелл / Jerry O'Connell (Ben), Бонни Перлман / Bonnie Perlman (Marge), Кристин Лати / Christine Lahti (Reese), Нэйтан Майерс / Nathan Myers (Kyle), Николас Майерс / Nicolas Myers (Kyle)


Описание: Пока вы это скрываете — вы невиновны! Когда вы разоблачаете себя — вы виновны во всем! А истина лежит где-то посередине! Так стоит ли играть в игру, которая несет реальность под откос?

Преуспевающий финансовый менеджер — акула бизнеса и обладатель сногсшибательной жены-красотки — вдруг становится объектом непреодолимой страсти новой работницы фирмы. Баловню судьбы импонирует интригующий и бурный поворот событий, пока офисный флирт не превращается в террор, ставящий под угрозу всю его жизнь!

Возможно ли предугадать исход, если на смену реальности и фактам приходят фантазии, слепая страсть, ОДЕРЖИМОСТЬ?




Качество: HDTVRip
Формат: MKV
Видео кодек: AVC
Аудио кодек: AC3
Видео: 1280x532 (2.40:1), 23.976 fps, AVC, 2 437 Kbps
Аудио: Аудио #1: AC3, 448 Kbps, 48.0 KHz, 6 ch

Код:

General
Complete name                    : Obsessed 2009.mkv
Format                           : Matroska
File size                        : 2.19 GiB
Duration                         : 1h 48mn
Overall bit rate                 : 2 886 Kbps
Movie name                       : Romeo
Encoded date                     : UTC 2012-10-06 07:33:43
Writing application              : mkvmerge v3.2.0 ('Beginnings') built on Feb 12 2010 16:46:17
Writing library                  : libebml v0.7.9 + libmatroska v0.8.1

Video
ID                               : 1
Format                           : AVC
Format/Info                      : Advanced Video Codec
Format profile                   : [email protected]
Format settings, CABAC           : Yes
Format settings, ReFrames        : 2 frames
Muxing mode                      : Container [email protected]
Codec ID                         : V_MPEG4/ISO/AVC
Duration                         : 1h 48mn
Bit rate                         : 2 437 Kbps
Width                            : 1 280 pixels
Height                           : 532 pixels
Display aspect ratio             : 2.40:1
Frame rate mode                  : Variable
Frame rate                       : 23.976 fps
Color space                      : YUV
Chroma subsampling               : 4:2:0
Bit depth                        : 8 bits
Scan type                        : Progressive
Bits/(Pixel*Frame)               : 0.149
Stream size                      : 1.80 GiB (82%)
Title                            : Одержимость
Writing library                  : x264 core 112 r1834 a51816a
Encoding settings                : cabac=1 / ref=2 / deblock=1:0:0 / analyse=0x3:0x113 / me=hex / subme=6 / psy=1 / psy_rd=1.00:0.00 / mixed_ref=0 / me_range=16 / chroma_me=1 / trellis=0 / 8x8dct=1 / cqm=0 / deadzone=21,11 / fast_pskip=1 / chroma_qp_offset=-2 / threads=4 / sliced_threads=0 / nr=0 / decimate=1 / interlaced=0 / constrained_intra=0 / bframes=3 / b_pyramid=0 / b_adapt=1 / b_bias=0 / direct=3 / weightb=1 / open_gop=0 / weightp=2 / keyint=250 / keyint_min=25 / scenecut=40 / intra_refresh=0 / rc_lookahead=40 / rc=2pass / mbtree=1 / bitrate=2437 / ratetol=1.0 / qcomp=0.60 / qpmin=10 / qpmax=51 / qpstep=4 / cplxblur=20.0 / qblur=0.5 / ip_ratio=1.41 / aq=1:1.00
Language                         : English

Audio
ID                               : 2
Format                           : AC-3
Format/Info                      : Audio Coding 3
Mode extension                   : CM (complete main)
Codec ID                         : A_AC3
Duration                         : 1h 48mn
Bit rate mode                    : Constant
Bit rate                         : 448 Kbps
Channel(s)                       : 6 channels
Channel positions                : Front: L C R, Side: L R, LFE
Sampling rate                    : 48.0 KHz
Bit depth                        : 16 bits
Stream size                      : 347 MiB (16%)
Title                            : Профессиональный (многоголосый, закадровый)
Language                         : Russian








planb.fun



Скачать Одержимость через торрент https://pic.kartinco.top/images/3/kbxys23tjt.jpg Скачать фильм Одержимость через торрент бесплантно в хорошем качестве Описание: Пока вы это скрываете — вы невиновны! Когда вы разоблачаете себя — вы виновны во всем! А истина лежит где-то посередине! Так ... 8.2 10 5
Info! Золотая раздача, скачанное не засчитывается.
Торрент: Зарегистрирован [2013-09-06 11:55] · скачан: 88 раз
Статус: √ проверено
Размер: 2.19 GB
Как cкачать? Как скачать Одержимость через торрент | UTorrent

% Раздел Тема Автор DL S | L
Разное [ 1.35 GB ] Одержимость / Jessyka Swan - Obsession [2014 blowjob facial teen black hair one on one WEBRip 1080p Оригинал] PROCTOLOG Скачать
1 | 0
Ultra HD (UHD: 2K, 4K, 8K) — видео сверхвысокой чёткости [ 40.56 GB ] Тайная одержимость / Secret Obsession [2019 UHD WEB-DL 2160p] [SDR] DUB [Невафильм] bober100 Скачать
1 | 0
Классика зарубежного кино [ 11.84 GB ] Великолепная одержимость / Magnificent Obsession [1954 BDRip 1080p by msltel] AVO msltel Скачать
1 | 0
Классика зарубежного кино [ 9.71 GB ] Великолепная одержимость / Magnificent Obsession [1935 BDRip 1080p by msltel] VO msltel Скачать
1 | 0
Классика зарубежного кино [ 4.69 GB ] Великолепная одержимость / Magnificent Obsession [1954 BDRip 720p by msltel] AVO msltel Скачать
1 | 0
Классика зарубежного кино [ 3.69 GB ] Великолепная одержимость / Magnificent Obsession [1935 BDRip 720p by msltel] VO msltel Скачать
1 | 0
Фильмы (WEB-DL 720p, 1080p) [ 2.66 GB ] Тайная одержимость / Secret Obsession [2019 WEB-DL 720p] DUB [Невафильм] bober100 Скачать
1 | 0


Последний раз редактировалось: VintMosina (2013-09-06 12:16), всего редактировалось 1 раз

28-11-2019 20:33  

Отключить всю рекламу на сайте

    Дорогой пользователь! Огромная просьба, поблагодарите релизера, оцените раздачу и оставьте свои комментарий, если Вы скачали Одержимость через торрент бесплатно! Внесите свою лепту в развитие PiratBit!
    Комментировать посты могут только пользователи прошедшие не сложную регистрацию
    Показать сообщения:    

    Одержимость через торрент
    Скачать бесплатно Одержимость
    Одержимость скачать торрент
    Одержимость смотреть онлайн
    Cкачать фильм Одержимость бесплатно
    Одержимость скачать торрент в хорошем качестве
    Одержимость смотреть онлайн бесплатно в хорошем качестве


    Вы не можете начинать темы
    Вы не можете отвечать на сообщения
    Вы не можете редактировать свои сообщения
    Вы не можете удалять свои сообщения
    Вы не можете голосовать в опросах
    Вы не можете прикреплять файлы к сообщениям
    Вы можете скачивать файлы