2 сезон

iTunes

WEBRip

1

2 сезон

iTunes

1 сезон

1 сезон

RePack

30

Ultimate

ВАЖНО

ИГРА 18+

pack

RePack

MK11
pack

Легкие деньги

RePack

jed

RePack

fifa19

RePack

RDR2

RePack

NEED FOR SPEED™ PAYBACK

4 сезон

9 сезон

Бесстыжие 9 сезон

Все сериалы

все сериалы на PB.wtf

RePack

FAR CRY 5

Anonymous, доброе утро, мы не успеваем собрать деньги на оплату серверов за февраль, помогите нам пожалуйста в это трудное время. В качестве благодарности мы отключим Вам всю рекламу на сайте (укажите свой ник в строку Ваше имя)!

×
  
Magnet ссылка

Одержимость / Obsessed (Стив Шилл / Steve Shill) [2009, США, триллер, драма, BDRip, Профессиональный многоголосый - Лицензия] planb.fun

Одержимость через торрент planb.fun

Размер: 1.46 GB | Добавлен: 6 лет 2 мес. назад | Торрент скачан:179 раз
Скачать  

04-12-2014 10:20 Одержимость Скачать торрент  

Одержимость / Obsessed«All's fair when love is war»
Год выпуска: 2009
Страна: США
Жанр: триллер, драма
Продолжительность: 01:48:22
Перевод: Профессиональный многоголосый [Лицензия]
Субтитры: Отсутствует
Режиссер: Стив Шилл / Steve Shill
В ролях:


Идрис Эльба (Derek), Бейонсе Ноулз (Sharon), Эли Лартер (Lisa), Джерри О’Коннелл (Ben), Бонни Перлман (Marge), Кристин Лати (Reese), Нэйтан Майерс (Kyle), Николас Майерс (Kyle), Мэттью Хэмпфри (Patrick), Скаут Тэйлор-Комптон (Samantha), Ричард Рукколо (Hank), Брайан Росс (Security Man)

Описание:
Пока вы это скрываете - вы невиновны! Когда вы разоблачаете себя - вы виновны во всем! А истина лежит где-то посередине! Так стоит ли играть в игру, которая несет реальность под откос?
Преуспевающий финансовый менеджер - акула бизнеса и обладатель сногсшибательной жены-красотки - вдруг становится объектом непреодолимой страсти новой работницы фирмы. Баловню судьбы импонирует интригующий и бурный поворот событий, пока офисный флирт не превращается в террор, ставящий под угрозу всю его жизнь!
Возможно ли предугадать исход, если на смену реальности и фактам приходят фантазии, слепая страсть, ОДЕРЖИМОСТЬ?

Рейтинг:
Бюджет:$20 000 000
MPAA: PG-13 - Детям до 13 лет просмотр не желателен
Качество: BDRip
Формат: AVI
Видео кодек:XviD
Аудио кодек:AC3
Видео: XviD, 720x304 (2.35:1), 1465 kbps, 23,976 fps, 0,279 bpp
Аудио: AC3 / 5.1 / 48 kHz / 448 kbps / 16 bit

General
Complete name : D:\Users\_KaisiK_\uTorrent\КИНО\Oderzhimost'.2009.BDRip.All.Films.avi
Format : AVI
Format/Info : Audio Video Interleave
File size : 1.46 GiB
Duration : 1h 48mn
Overall bit rate : 1 923 Kbps
Writing application : VirtualDubMod 1.5.10.3 | www.virtualdub-fr.org || (build 2550/release)
Writing library : VirtualDubMod build 2550/release

Video
ID : 0
Format : MPEG-4 Visual
Format profile : Advanced [email protected]
Format settings, BVOP : 2
Format settings, QPel : No
Format settings, GMC : No warppoints
Format settings, Matrix : Custom
Codec ID : XVID
Codec ID/Hint : XviD
Duration : 1h 48mn
Bit rate : 1 466 Kbps
Width : 720 pixels
Height : 304 pixels
Display aspect ratio : 2.35:1
Frame rate : 23.976 fps
Color space : YUV
Chroma subsampling : 4:2:0
Bit depth : 8 bits
Scan type : Progressive
Compression mode : Lossy
Bits/(Pixel*Frame) : 0.279
Stream size : 1.11 GiB (76%)
Writing library : XviD 65

Audio
ID : 1
Format : AC-3
Format/Info : Audio Coding 3
Mode extension : CM (complete main)
Codec ID : 2000
Duration : 1h 48mn
Bit rate mode : Constant
Bit rate : 448 Kbps
Channel(s) : 6 channels
Channel positions : Front: L C R, Side: L R, LFE
Sampling rate : 48.0 KHz
Bit depth : 16 bits
Compression mode : Lossy
Delay relative to video : 400ms
Stream size : 347 MiB (23%)
Alignment : Split accross interleaves
Interleave, duration : 42 ms (1.00 video frame)
Interleave, preload duration : 500 ms

[/code]
planb.fun



Скачать Одержимость через торрент http://i68.fastpic.ru/big/2014/1204/3a/ecf5a74738bd2b0b5f86ab994522853a.png Скачать фильм Одержимость через торрент бесплантно в хорошем качестве Описание: Пока вы это скрываете - вы невиновны! Когда вы разоблачаете себя - вы виновны во всем! А истина лежит где-то посередине! Так ... 10 10 3
Торрент: Зарегистрирован [2014-12-04 10:20] · скачан: 179 раз
Статус: √ проверено
Размер: 1.46 GB
Как cкачать? Как скачать Одержимость через торрент | UTorrent

% Раздел Тема Автор DL S | L
Разное [ 1.35 GB ] Одержимость / Jessyka Swan - Obsession [2014 blowjob facial teen black hair one on one WEBRip 1080p Оригинал] PROCTOLOG Скачать
1 | 0
Ultra HD (UHD: 2K, 4K, 8K) — видео сверхвысокой чёткости [ 40.56 GB ] Тайная одержимость / Secret Obsession [2019 UHD WEB-DL 2160p] [SDR] DUB [Невафильм] bober100 Скачать
1 | 0
Классика зарубежного кино [ 11.84 GB ] Великолепная одержимость / Magnificent Obsession [1954 BDRip 1080p by msltel] AVO msltel Скачать
1 | 0
Классика зарубежного кино [ 9.71 GB ] Великолепная одержимость / Magnificent Obsession [1935 BDRip 1080p by msltel] VO msltel Скачать
1 | 0
Классика зарубежного кино [ 4.69 GB ] Великолепная одержимость / Magnificent Obsession [1954 BDRip 720p by msltel] AVO msltel Скачать
1 | 0
Классика зарубежного кино [ 3.69 GB ] Великолепная одержимость / Magnificent Obsession [1935 BDRip 720p by msltel] VO msltel Скачать
1 | 0
Фильмы (WEB-DL 720p, 1080p) [ 2.66 GB ] Тайная одержимость / Secret Obsession [2019 WEB-DL 720p] DUB [Невафильм] bober100 Скачать
1 | 0

28-11-2019 20:33  

Отключить всю рекламу на сайте

    Дорогой пользователь! Огромная просьба, поблагодарите релизера, оцените раздачу и оставьте свои комментарий, если Вы скачали Одержимость через торрент бесплатно! Внесите свою лепту в развитие PiratBit!
    Комментировать посты могут только пользователи прошедшие не сложную регистрацию
    Показать сообщения:    

    Одержимость через торрент
    Скачать бесплатно Одержимость
    Одержимость скачать торрент
    Одержимость смотреть онлайн
    Cкачать фильм Одержимость бесплатно
    Одержимость скачать торрент в хорошем качестве
    Одержимость смотреть онлайн бесплатно в хорошем качестве


    Вы не можете начинать темы
    Вы не можете отвечать на сообщения
    Вы не можете редактировать свои сообщения
    Вы не можете удалять свои сообщения
    Вы не можете голосовать в опросах
    Вы не можете прикреплять файлы к сообщениям
    Вы можете скачивать файлы