2 сезон

iTunes

WEBRip

1

2 сезон

iTunes

1 сезон

1 сезон

RePack

30

Ultimate

ВАЖНО

ИГРА 18+

pack

RePack

MK11
pack

Легкие деньги

RePack

jed

RePack

fifa19

RePack

RDR2

RePack

NEED FOR SPEED™ PAYBACK

4 сезон

9 сезон

Бесстыжие 9 сезон

Все сериалы

все сериалы на PB.wtf

RePack

FAR CRY 5

Anonymous, добрый вечер, мы не успеваем собрать деньги на оплату серверов за февраль, помогите нам пожалуйста в это трудное время. В качестве благодарности мы отключим Вам всю рекламу на сайте (укажите свой ник в строку Ваше имя)!

×
  
Magnet ссылка

Треугольник / Triangle (Кристофер Смит) [2009 г., детектив, триллер, ужасы, HDRip, Профессиональный (многоголосый)ТВ 3] planb.fun

Треугольник через торрент planb.fun

Размер: 1.46 GB | Добавлен: 4 года 6 мес. назад | Торрент скачан:284 раза
Скачать  

12-08-2016 17:03 Треугольник Скачать торрент  

Треугольник / Triangle Год выпуска: 2009
Страна: Великобритания, Австралия
Жанр: детектив, триллер, ужасы
Продолжительность: 01:38:52
Перевод: Профессиональный (многоголосый)ТВ 3
Субтитры: Отсутствуют

Режиссер: Кристофер Смит
Продюссер: Джули Бэйнс, Крис Браун, Джейсон Ньюмарк
Сценарий: Кристофер Смит

Бюджет: $12 000 000
Премьера в мире: 27 августа 2009

лицам до 17 лет обязательно присутствие взрослого
http://imdb.snick.ru/movie/tt1187064



В ролях: Мелисса Джордж, Майкл Дорман, Лиам Хемсворт, Генри Никсон, Рейчал Карпани, Эмма Ланг, Джошуа МакИвор, Джек Тейлор, Брайан Пробетс.

Описание: Грег приглашает свою подругу Джесс, молодую мать-одиночку, провести день на яхте в кругу своих друзей. Начавшийся сильный шторм переворачивает судно, и оставшиеся в живых вынуждены дожидаться помощи, цепляясь за перевернутый корпус яхты. Спасение приходит в виде огромного океанического лайнера. Судно оказывается пустым, часы на борту остановились. Но они не одни на этом огромном корабле — за ними кто-то неустанно следит…

Качество: HDRip
Формат: AVI
Видео кодек: XviD
Аудио кодек: AC3
Видео: 720x304 (2.37:1), 23.976 fps, XviD build 50 ~1649 kbps avg, 0.31 bit/pixel
Аудио#1: 48 kHz, AC3 Dolby Digital, 3/2 (L,C,R,l,r) + LFE ch, ~448 kbps
скриншот  скриншот  скриншот  скриншот  скриншот  скриншот  

General
Complete name : E:\Treugolnik_HDRip.avi
Format : AVI
Format/Info : Audio Video Interleave
File size : 1.46 GiB
Duration : 1h 38mn
Overall bit rate : 2 107 Kbps
Writing application : VirtualDubMod 1.5.10.2 (build 2540/release)
Writing library : VirtualDub build 32842/release

Video
ID : 0
Format : MPEG-4 Visual
Format profile : Advanced [email protected]
Format settings, BVOP : 1
Format settings, QPel : No
Format settings, GMC : No warppoints
Format settings, Matrix : Custom
Codec ID : XVID
Codec ID/Hint : XviD
Duration : 1h 38mn
Bit rate : 1 650 Kbps
Width : 720 pixels
Height : 304 pixels
Display aspect ratio : 2.35:1
Frame rate : 23.976 fps
Color space : YUV
Chroma subsampling : 4:2:0
Bit depth : 8 bits
Scan type : Progressive
Compression mode : Lossy
Bits/(Pixel*Frame) : 0.314
Stream size : 1.14 GiB (78%)
Writing library : XviD 1.2.1 (UTC 2008-12-04)

Audio
ID : 1
Format : AC-3
Format/Info : Audio Coding 3
Mode extension : CM (complete main)
Format settings, Endianness : Big
Codec ID : 2000
Duration : 1h 38mn
Bit rate mode : Constant
Bit rate : 448 Kbps
Channel count : 6 channels
Channel positions : Front: L C R, Side: L R, LFE
Sampling rate : 48.0 KHz
Bit depth : 16 bits
Compression mode : Lossy
Delay relative to video : 1s 100ms
Stream size : 317 MiB (21%)
Alignment : Split accross interleaves
Interleave, duration : 42 ms (1.00 video frame)
Interleave, preload duration : 500 ms

planb.fun



Скачать Треугольник через торрент http://s017.radikal.ru/i407/1608/ef/875792325455.jpg Скачать фильм Треугольник через торрент бесплантно в хорошем качестве Описание: Грег приглашает свою подругу Джесс, молодую мать-одиночку, провести день на яхте в кругу своих друзей. Начавшийся сильный шторм ... 9.3 10 12
Торрент: Зарегистрирован [2016-08-12 17:03] · скачан: 284 раз
Статус: √ проверено
Размер: 1.46 GB
Как cкачать? Как скачать Треугольник через торрент | UTorrent

28-11-2019 20:33  

Отключить всю рекламу на сайте

12-08-2016 18:54 Треугольник Скачать торрент  

кино нормplanb.fun



12-08-2016 20:08 Треугольник Скачать торрент  

Хороший фильм смотреть можно)planb.fun



    Дорогой пользователь! Огромная просьба, поблагодарите релизера, оцените раздачу и оставьте свои комментарий, если Вы скачали Треугольник через торрент бесплатно! Внесите свою лепту в развитие PiratBit!
    Комментировать посты могут только пользователи прошедшие не сложную регистрацию
    Показать сообщения:    

    Треугольник через торрент
    Скачать бесплатно Треугольник
    Треугольник скачать торрент
    Треугольник смотреть онлайн
    Cкачать фильм Треугольник бесплатно
    Треугольник скачать торрент в хорошем качестве
    Треугольник смотреть онлайн бесплатно в хорошем качестве


    Вы не можете начинать темы
    Вы не можете отвечать на сообщения
    Вы не можете редактировать свои сообщения
    Вы не можете удалять свои сообщения
    Вы не можете голосовать в опросах
    Вы не можете прикреплять файлы к сообщениям
    Вы можете скачивать файлы