2 сезон

iTunes

WEBRip

1

2 сезон

iTunes

1 сезон

1 сезон

RePack

30

Ultimate

ВАЖНО

ИГРА 18+

pack

RePack

MK11
pack

Легкие деньги

RePack

jed

RePack

fifa19

RePack

RDR2

RePack

NEED FOR SPEED™ PAYBACK

4 сезон

9 сезон

Бесстыжие 9 сезон

Все сериалы

все сериалы на PB.wtf

RePack

FAR CRY 5

Anonymous, доброй ночи, мы не успеваем собрать деньги на оплату серверов за февраль, помогите нам пожалуйста в это трудное время. В качестве благодарности мы отключим Вам всю рекламу на сайте (укажите свой ник в строку Ваше имя)!

×
  
Magnet ссылка

Одержимость / Obsessed (Стив Шилл) [2009 г., триллер, драма, криминал, BDRip] Профессиональный многоголосый [Лицензия] planb.fun

Одержимость через торрент planb.fun

Размер: 2.18 GB | Добавлен: 2 года 4 мес. назад | Торрент скачан:44 раза
Скачать  

02-10-2018 20:18 Одержимость Скачать торрент  

Одержимость / Obsessed
Год выпуска: 2009
Страна: США
Жанр: Триллер, драма, криминал
Продолжительность: 01:48:23
Перевод: Профессиональный (многоголосый) [Лицензия]

Режиссер: Стив Шилл

rating

В ролях: Идрис Эльба, Бейонсе Ноулз, Эли Лартер, Джерри О`Коннелл, Бонни Перлман, Кристин Лахти, Натан Майерс, Николас Майерс, Мэттью Хэмпфри, Скаут Тейлор-Комптон, Ричард Рукколо, Брайан Росс, Брюс МакГилл

Описание: В офисе появляется новая сотрудница. Девушка просто «ангел во плоти» и внешностью мила , и в работе просто клад. Не успеет шеф о чем -то подумать, а работа уже сделана. Но с появлением роковой красотки, жизнь молодого и преуспевающего начальника становится с ног на голову. Кто бы мог предположить, что обычная вежливость, с его стороны даст повод для дальнейших событий, чуть не разрушивших его жизнь.
Качество: BDRip
Формат: AVI
Видео кодек: XviD
Аудио кодек: AC3
Видео: XviD, 1967 Кбит/с, 720x304
Аудио#1: Русский, AC3, 6 ch, 448 Кбит/с
Аудио#2: Английский, AC3, 6 ch, 448 Кбит/с
Видео
Идентификатор : 0
Формат : MPEG-4 Visual
Профиль формата : Advanced [email protected]
Настройки формата : BVOP1 / Custom Matrix
Параметр BVOP формата : 1
Параметр QPel формата : Нет
Параметр GMC формата : Без точки перехода
Параметр матрицы формата : Выборочная
Идентификатор кодека : XVID
Идентификатор кодека/Подсказка : XviD
Продолжительность : 1 ч. 48 м.
Битрейт : 1967 Кбит/сек
Ширина : 720 пикселей
Высота : 304 пикселя
Соотношение сторон : 2,35:1
Частота кадров : 23,976 (24000/1001) кадра/сек
Цветовое пространство : YUV
Субдискретизация насыщенности : 4:2:0
Битовая глубина : 8 бит
Тип развёртки : Прогрессивная
Метод сжатия : С потерями
Бит/(Пиксели*Кадры) : 0.375
Размер потока : 1,49 Гбайт (68%)
Библиотека кодирования : XviD 57

Аудио #1
Идентификатор : 1
Формат : AC-3
Формат/Информация : Audio Coding 3
Идентификатор кодека : 2000
Продолжительность : 1 ч. 48 м.
Вид битрейта : Постоянный
Битрейт : 448 Кбит/сек
Каналы : 6 каналов
Расположение каналов : Front: L C R, Side: L R, LFE
Частота : 48,0 КГц
Частота кадров : 31,250 кадров/сек (1536 SPF)
Битовая глубина : 16 бит
Метод сжатия : С потерями
Размер потока : 347 Мбайт (16%)
Выравнивание : Разделение по промежуткам
Продолжительность промежутка : 42 мс. (1,00 видеокадр)
Время предзагрузки промежутка : 500 мс.
ServiceKind/String : Complete Main

Аудио #2
Идентификатор : 2
Формат : AC-3
Формат/Информация : Audio Coding 3
Идентификатор кодека : 2000
Продолжительность : 1 ч. 48 м.
Вид битрейта : Постоянный
Битрейт : 448 Кбит/сек
Каналы : 6 каналов
Расположение каналов : Front: L C R, Side: L R, LFE
Частота : 48,0 КГц
Частота кадров : 31,250 кадров/сек (1536 SPF)
Битовая глубина : 16 бит
Метод сжатия : С потерями
Размер потока : 347 Мбайт (16%)
Выравнивание : Разделение по промежуткам
Продолжительность промежутка : 42 мс. (1,00 видеокадр)
Время предзагрузки промежутка : 500 мс.
ServiceKind/String : Complete Main

скриншот   скриншот   скриншот   скриншот   скриншот   скриншот  

planb.fun



Скачать Одержимость через торрент https://pic1.kartinco.top/images/11/l2ghx.jpg Скачать фильм Одержимость через торрент бесплантно в хорошем качестве Описание: В офисе появляется новая сотрудница. Девушка просто «ангел во плоти» и внешностью мила , и в работе просто клад. Не успеет шеф о ... 5 10 1
Торрент: Зарегистрирован [2018-10-02 20:18] · скачан: 44 раз
Статус: √ проверено
Размер: 2.18 GB
Как cкачать? Как скачать Одержимость через торрент | UTorrent

% Раздел Тема Автор DL S | L
Разное [ 1.35 GB ] Одержимость / Jessyka Swan - Obsession [2014 blowjob facial teen black hair one on one WEBRip 1080p Оригинал] PROCTOLOG Скачать
1 | 0
Ultra HD (UHD: 2K, 4K, 8K) — видео сверхвысокой чёткости [ 40.56 GB ] Тайная одержимость / Secret Obsession [2019 UHD WEB-DL 2160p] [SDR] DUB [Невафильм] bober100 Скачать
1 | 0
Классика зарубежного кино [ 11.84 GB ] Великолепная одержимость / Magnificent Obsession [1954 BDRip 1080p by msltel] AVO msltel Скачать
1 | 0
Классика зарубежного кино [ 9.71 GB ] Великолепная одержимость / Magnificent Obsession [1935 BDRip 1080p by msltel] VO msltel Скачать
1 | 0
Классика зарубежного кино [ 4.69 GB ] Великолепная одержимость / Magnificent Obsession [1954 BDRip 720p by msltel] AVO msltel Скачать
1 | 0
Классика зарубежного кино [ 3.69 GB ] Великолепная одержимость / Magnificent Obsession [1935 BDRip 720p by msltel] VO msltel Скачать
1 | 0
Фильмы (WEB-DL 720p, 1080p) [ 2.66 GB ] Тайная одержимость / Secret Obsession [2019 WEB-DL 720p] DUB [Невафильм] bober100 Скачать
1 | 0

28-11-2019 20:33  

Отключить всю рекламу на сайте

03-10-2018 07:54 Одержимость Скачать торрент  

Топик был перенесен из форума Оформление раздач (Кино, Видео и ТВ) в форум Фильмы 2009


schultzplanb.fun



    Дорогой пользователь! Огромная просьба, поблагодарите релизера, оцените раздачу и оставьте свои комментарий, если Вы скачали Одержимость через торрент бесплатно! Внесите свою лепту в развитие PiratBit!
    Комментировать посты могут только пользователи прошедшие не сложную регистрацию
    Показать сообщения:    

    Одержимость через торрент
    Скачать бесплатно Одержимость
    Одержимость скачать торрент
    Одержимость смотреть онлайн
    Cкачать фильм Одержимость бесплатно
    Одержимость скачать торрент в хорошем качестве
    Одержимость смотреть онлайн бесплатно в хорошем качестве


    Вы не можете начинать темы
    Вы не можете отвечать на сообщения
    Вы не можете редактировать свои сообщения
    Вы не можете удалять свои сообщения
    Вы не можете голосовать в опросах
    Вы не можете прикреплять файлы к сообщениям
    Вы можете скачивать файлы