2 сезон

iTunes

WEBRip

1

2 сезон

iTunes

1 сезон

1 сезон

RePack

30

Новинка

ВАЖНО

ИГРА 18+

pack

RePack

MK11
pack

Легкие деньги

RePack

jed

RePack

fifa19

RePack

RDR2

RePack

NEED FOR SPEED™ PAYBACK

4 сезон

9 сезон

Бесстыжие 9 сезон

Все сериалы

все сериалы на PB.wtf

RePack

FAR CRY 5

Anonymous, добрый вечер, мы не успеваем собрать деньги на оплату серверов за февраль, помогите нам пожалуйста в это трудное время. В качестве благодарности мы отключим Вам всю рекламу на сайте (укажите свой ник в строку Ваше имя)!

×
  
Magnet ссылка

Кадиллак Долана / Dolan's Cadillac (Джефф Бисли) [2009, триллер, криминал, BDRip (AVC) by msltel] MVO, 2 x AVO planb.fun

Кадиллак Долана через торрент planb.fun

Размер: 2.46 GB | Добавлен: 1 год 3 мес. назад | Торрент скачан:13 раз
Скачать  

10-11-2019 06:49 Кадиллак Долана Скачать торрент  

Название: Кадиллак Долана
Оригинальное название: Dolan's Cadillac
Год выпуска: 2009
Страна: Канада, Великобритания
Жанр: триллер, криминал
Продолжительность: 01:28:47
Перевод: профессиональный многоголосый, авторский

Режиссер: Джефф Бисли
В ролях: Кристиан Слэйтер, Эммануэль Вожье, Уэс Бентли, Грег Брайк, Ал Сапиенза, Эми Матисио, Саймон Чин (II), Айдан Девайн, Патрик Бёрд (II), Юджин Кларк, Макс Кин (II), Карен ЛеБланк, Роберт Бенц, Тони Манч

О фильме: Жена учителя Робинсона согласилась свидетельствовать в суде против босса мафии. За это её взрывают в своей машине, и бандиты уходят от наказания. Робинсон поклялся отомстить им и в течение семи лет разрабатывал план мести. Устроившись на работу дорожным рабочим, Робинсон, наконец, воплощает в жизнь тщательно разработанный им план. Он разбирает часть дорожного полотна, выкопав на этом месте яму-ловушку. Долан вместе со своим телохранителем и шофером попадают в неё... Фильм снят по одноимённому рассказу Стивена Кинга.



Качество: BDRip (AVC)
Формат: MKV
Видео: MPEG-4 AVC, 2167 Кбит/с, 1024x436, 23,976 Кадр/с
Аудио 1: русский, AC3, 448 kbps, 6 ch, 48 kHz [закадровый многоголосый, BD RUS]
Аудио 2: русский, AC3, 448 kbps, 6 ch, 48 kHz [авторский, Юрий Немахов]
Аудио 3: русский, AC3, 448 kbps, 6 ch, 48 kHz [авторский, Михаил Яроцкий]
Аудио 4: английский, AC3, 448 kbps, 6 ch, 48 kHz [оригинал]
Субтитры 1: русские
Субтитры 2: английские
Субтитры 3: английские (ASS)
Главы/чаптеры
Общее
Уникальный идентификатор : 223478572118900159208011889776982283508 (0xA820684B2FFBCE3AB150500DA81CD4F4)
Полное имя : D:\Video\Кадиллак Долана.2009.BDRip (AVC) by msltel.mkv
Формат : Matroska
Версия формата : Version 4
Размер файла : 2,46 Гбайт
Продолжительность : 1 ч. 28 м.
Общий поток : 3959 Кбит/сек
Название фильма : Rip by msltel
Дата кодирования : UTC 2019-11-09 13:04:01
Программа кодирования : mkvmerge v8.2.0 ('World of Adventure') 64bit
Библиотека кодирования : libebml v1.3.1 + libmatroska v1.4.2

Видео
Идентификатор : 1
Формат : AVC
Формат/Информация : Advanced Video Codec
Профиль формата : [email protected]
Настройки формата : CABAC / 9 Ref Frames
Параметр CABAC формата : Да
Параметр RefFrames формата : 9 кадров
Идентификатор кодека : V_MPEG4/ISO/AVC
Продолжительность : 1 ч. 28 м.
Битрейт : 2167 Кбит/сек
Ширина : 1024 пикселя
Высота : 436 пикселей
Соотношение сторон : 2,35:1
Режим частоты кадров : Постоянный
Частота кадров : 23,976 (24000/1001) кадра/сек
Цветовое пространство : YUV
Субдискретизация насыщенности : 4:2:0
Битовая глубина : 8 бит
Тип развёртки : Прогрессивная
Бит/(Пиксели*Кадры) : 0.202
Размер потока : 1,34 Гбайт (55%)
Библиотека кодирования : x264 core 157 r2935 545de2f
Настройки программы : cabac=1 / ref=9 / deblock=1:-2:-2 / analyse=0x3:0x113 / me=umh / subme=11 / psy=1 / psy_rd=1.00:0.15 / mixed_ref=1 / me_range=32 / chroma_me=1 / trellis=2 / 8x8dct=1 / cqm=0 / deadzone=21,11 / fast_pskip=0 / chroma_qp_offset=-3 / threads=6 / lookahead_threads=1 / sliced_threads=0 / nr=0 / decimate=1 / interlaced=0 / bluray_compat=0 / constrained_intra=0 / bframes=11 / b_pyramid=2 / b_adapt=2 / b_bias=0 / direct=1 / weightb=1 / open_gop=0 / weightp=2 / keyint=230 / keyint_min=23 / scenecut=40 / intra_refresh=0 / rc_lookahead=40 / rc=crf / mbtree=1 / crf=18.0 / qcomp=0.60 / qpmin=0 / qpmax=69 / qpstep=4 / vbv_maxrate=50000 / vbv_bufsize=62500 / crf_max=0.0 / nal_hrd=none / filler=0 / ip_ratio=1.40 / aq=1:1.00
Язык : English
Default : Да
Forced : Нет

Аудио #1
Идентификатор : 2
Формат : AC-3
Формат/Информация : Audio Coding 3
Коммерческое название : Dolby Digital
Идентификатор кодека : A_AC3
Продолжительность : 1 ч. 28 м.
Вид битрейта : Постоянный
Битрейт : 448 Кбит/сек
Каналы : 6 каналов
ChannelLayout : L R C LFE Ls Rs
Частота : 48,0 КГц
Частота кадров : 31,250 кадров/сек (1536 SPF)
Метод сжатия : С потерями
Размер потока : 285 Мбайт (11%)
Заголовок : MVO BD RUS
Язык : Russian
ServiceKind/String : Complete Main
Default : Да
Forced : Нет

Аудио #2
Идентификатор : 3
Формат : AC-3
Формат/Информация : Audio Coding 3
Коммерческое название : Dolby Digital
Идентификатор кодека : A_AC3
Продолжительность : 1 ч. 28 м.
Вид битрейта : Постоянный
Битрейт : 448 Кбит/сек
Каналы : 6 каналов
ChannelLayout : L R C LFE Ls Rs
Частота : 48,0 КГц
Частота кадров : 31,250 кадров/сек (1536 SPF)
Метод сжатия : С потерями
Задержка видео : 42 мс.
Размер потока : 285 Мбайт (11%)
Заголовок : Юрий Немахов
Язык : Russian
ServiceKind/String : Complete Main
Default : Нет
Forced : Нет

Аудио #3
Идентификатор : 4
Формат : AC-3
Формат/Информация : Audio Coding 3
Коммерческое название : Dolby Digital
Идентификатор кодека : A_AC3
Продолжительность : 1 ч. 28 м.
Вид битрейта : Постоянный
Битрейт : 448 Кбит/сек
Каналы : 6 каналов
ChannelLayout : L R C LFE Ls Rs
Частота : 48,0 КГц
Частота кадров : 31,250 кадров/сек (1536 SPF)
Метод сжатия : С потерями
Размер потока : 285 Мбайт (11%)
Заголовок : Михаил Яроцкий
Язык : Russian
ServiceKind/String : Complete Main
Default : Нет
Forced : Нет

Аудио #4
Идентификатор : 5
Формат : AC-3
Формат/Информация : Audio Coding 3
Коммерческое название : Dolby Digital
Идентификатор кодека : A_AC3
Продолжительность : 1 ч. 28 м.
Вид битрейта : Постоянный
Битрейт : 448 Кбит/сек
Каналы : 6 каналов
ChannelLayout : L R C LFE Ls Rs
Частота : 48,0 КГц
Частота кадров : 31,250 кадров/сек (1536 SPF)
Метод сжатия : С потерями
Задержка видео : 42 мс.
Размер потока : 285 Мбайт (11%)
Заголовок : original
Язык : English
ServiceKind/String : Complete Main
Default : Нет
Forced : Нет

Текст #1
Идентификатор : 6
Формат : UTF-8
Идентификатор кодека : S_TEXT/UTF8
Идентификатор кодека/Информация : UTF-8 Plain Text
Продолжительность : 1 ч. 24 м.
Битрейт : 71 бит/сек
ElementCount : 581
Размер потока : 44,2 Кбайт (0%)
Заголовок : русские
Язык : Russian
Default : Нет
Forced : Нет

Текст #2
Идентификатор : 7
Формат : UTF-8
Идентификатор кодека : S_TEXT/UTF8
Идентификатор кодека/Информация : UTF-8 Plain Text
Продолжительность : 1 ч. 23 м.
Битрейт : 41 бит/сек
ElementCount : 676
Размер потока : 25,3 Кбайт (0%)
Заголовок : английские SRT
Язык : English
Default : Нет
Forced : Нет

Текст #3
Идентификатор : 8
Формат : ASS
Идентификатор кодека : S_TEXT/ASS
Идентификатор кодека/Информация : Advanced Sub Station Alpha
Продолжительность : 1 ч. 24 м.
Битрейт : 73 бит/сек
ElementCount : 680
Метод сжатия : Без потерь
Размер потока : 45,2 Кбайт (0%)
Заголовок : английские ASS
Язык : English
Default : Нет
Forced : Нет

Меню
00:00:00.000 : :Глава 01
00:08:28.132 : :Глава 02
00:13:53.040 : :Глава 03
00:19:51.440 : :Глава 04
00:27:51.378 : :Глава 05
00:36:07.290 : :Глава 06
00:42:33.300 : :Глава 07
00:49:04.565 : :Глава 08
00:54:44.698 : :Глава 09
01:01:35.108 : :Глава 10
01:09:09.145 : :Глава 11
01:17:48.747 : :Глава 12
01:24:47.791 : :Глава 13
planb.fun



Скачать Кадиллак Долана через торрент https://a.radikal.ru/a00/1911/eb/43645e29c2c6.jpg Скачать фильм Кадиллак Долана через торрент бесплантно в хорошем качестве О фильме: Жена учителя Робинсона согласилась свидетельствовать в суде против босса мафии. За это её взрывают в своей машине, и бандиты ... 10 10 1
Торрент: Зарегистрирован [2019-11-10 06:49] · скачан: 13 раз
Статус: √ проверено
Размер: 2.46 GB
Как cкачать? Как скачать Кадиллак Долана через торрент | UTorrent

28-11-2019 20:33  

Отключить всю рекламу на сайте

    Дорогой пользователь! Огромная просьба, поблагодарите релизера, оцените раздачу и оставьте свои комментарий, если Вы скачали Кадиллак Долана через торрент бесплатно! Внесите свою лепту в развитие PiratBit!
    Комментировать посты могут только пользователи прошедшие не сложную регистрацию
    Показать сообщения:    

    Кадиллак Долана через торрент
    Скачать бесплатно Кадиллак Долана
    Кадиллак Долана скачать торрент
    Кадиллак Долана смотреть онлайн
    Cкачать фильм Кадиллак Долана бесплатно
    Кадиллак Долана скачать торрент в хорошем качестве
    Кадиллак Долана смотреть онлайн бесплатно в хорошем качестве


    Вы не можете начинать темы
    Вы не можете отвечать на сообщения
    Вы не можете редактировать свои сообщения
    Вы не можете удалять свои сообщения
    Вы не можете голосовать в опросах
    Вы не можете прикреплять файлы к сообщениям
    Вы можете скачивать файлы