2 сезон

iTunes

WEBRip

1

2 сезон

iTunes

1 сезон

1 сезон

RePack

30

Новинка

ВАЖНО

ИГРА 18+

pack

RePack

MK11
pack

Легкие деньги

RePack

jed

RePack

fifa19

RePack

RDR2

RePack

NEED FOR SPEED™ PAYBACK

4 сезон

9 сезон

Бесстыжие 9 сезон

Все сериалы

все сериалы на PB.wtf

RePack

FAR CRY 5

Anonymous, доброй ночи, мы не успеваем собрать деньги на оплату серверов за февраль, помогите нам пожалуйста в это трудное время. В качестве благодарности мы отключим Вам всю рекламу на сайте (укажите свой ник в строку Ваше имя)!

×
  
Magnet ссылка

Моя девочка не хочет... / Non ma fille, tu n'iras pas danser (Кристоф Оноре) [2009, драма, BDRip-AVC by msltel] MVO planb.fun

Моя девочка не хочет... через торрент planb.fun

Размер: 2.64 GB | Добавлен: 11 мес. назад | Торрент скачан:4 раза
Скачать  

22-03-2020 06:40 Моя девочка не хочет... Скачать торрент  

Название: Моя девочка не хочет...
Оригинальное название: Non ma fille, tu n'iras pas danser
Год выпуска: 2009
Страна: Франция
Жанр: драма
Продолжительность: 01:47:58
Перевод: профессиональный многоголосый
Режиссер: Кристоф Оноре
В ролях: Кьяра Мастроянни, Марина Фоис, Мари-Кристин Барро, Жан-Марк Барр, Фред Улиссе, Луи Гаррель, Марсиаль Ди Фондзо Бо, Алис Бюто, Жюльен Оноре, Каролин Сиоль

О фильме: Главная героиня Лена только что разошлась с мужем. Муж Найджел пытается получить опеку над детьми. Лена бросает работу в клинике и увозит детей к родителям, пытаясь убежать от прежней жизни. Но и семья — родители, брат и сестра — не даёт ей желанного спасения. Каждый считает нужным сделать её счастливой. Мать Лены, втайне от неё, приглашает Найджела погостить и присмотреть за детьми, пока Лена устраивается на новую работу. Эта новость выбивает из равновесия и без того невротичную женщину. Общая напряжённость между всеми парами семьи создаёт невыносимую обстановку и заставляет Лену принимать необдуманные и противоречивые решения... (Википедия)



Качество: BDRip-AVC
Формат: MKV
Видео: MPEG-4 AVC, 3112 Kбит/с, 1024x554, 23.976 Кадр/с
Аудио 1: русский, AC3, 192 kbps, 2 ch, 48 kHz [закадровый многоголосый]
Аудио 2: французский, AC3, 192 kbps, 2 ch, 48 kHz [оригинал]
Субтитры 1: русские
Субтитры 2: французские
Главы/чаптеры
Общее
Уникальный идентификатор : 211590550096950199495379978240771817663 (0x9F2EDB8E2BCB5AF4BE54EF8F0E5100BF)
Полное имя : D:\Video\Моя девочка не хочет.2009.BDRip-AVC by msltel.mkv
Формат : Matroska
Версия формата : Version 4
Размер файла : 2,64 Гбайт
Продолжительность : 1 ч. 48 м.
Общий поток : 3497 Кбит/сек
Название фильма : Rip by msltel
Дата кодирования : UTC 2020-03-22 02:45:41
Программа кодирования : mkvmerge v8.2.0 ('World of Adventure') 64bit
Библиотека кодирования : libebml v1.3.1 + libmatroska v1.4.2

Видео
Идентификатор : 1
Формат : AVC
Формат/Информация : Advanced Video Codec
Профиль формата : [email protected]
Настройки формата : CABAC / 12 Ref Frames
Параметр CABAC формата : Да
Параметр RefFrames формата : 12 кадров
Идентификатор кодека : V_MPEG4/ISO/AVC
Продолжительность : 1 ч. 47 м.
Битрейт : 3112 Кбит/сек
Ширина : 1024 пикселя
Высота : 554 пикселя
Соотношение сторон : 1,85:1
Режим частоты кадров : Постоянный
Частота кадров : 23,976 (24000/1001) кадра/сек
Цветовое пространство : YUV
Субдискретизация насыщенности : 4:2:0
Битовая глубина : 8 бит
Тип развёртки : Прогрессивная
Бит/(Пиксели*Кадры) : 0.229
Размер потока : 2,35 Гбайт (89%)
Библиотека кодирования : x264 core 159 r2991 1771b55
Настройки программы : cabac=1 / ref=12 / deblock=1:-2:-2 / analyse=0x3:0x113 / me=umh / subme=11 / psy=1 / psy_rd=1.00:0.15 / mixed_ref=1 / me_range=32 / chroma_me=1 / trellis=2 / 8x8dct=1 / cqm=0 / deadzone=21,11 / fast_pskip=0 / chroma_qp_offset=-3 / threads=6 / lookahead_threads=1 / sliced_threads=0 / nr=0 / decimate=1 / interlaced=0 / bluray_compat=0 / constrained_intra=0 / bframes=9 / b_pyramid=2 / b_adapt=2 / b_bias=0 / direct=1 / weightb=1 / open_gop=0 / weightp=2 / keyint=230 / keyint_min=23 / scenecut=40 / intra_refresh=0 / rc_lookahead=40 / rc=crf / mbtree=1 / crf=20.0 / qcomp=0.60 / qpmin=0 / qpmax=69 / qpstep=4 / vbv_maxrate=50000 / vbv_bufsize=62500 / crf_max=0.0 / nal_hrd=none / filler=0 / ip_ratio=1.40 / aq=1:1.00
Язык : French
Default : Да
Forced : Нет

Аудио #1
Идентификатор : 2
Формат : AC-3
Формат/Информация : Audio Coding 3
Коммерческое название : Dolby Digital
Идентификатор кодека : A_AC3
Продолжительность : 1 ч. 48 м.
Вид битрейта : Постоянный
Битрейт : 192 Кбит/сек
Каналы : 2 канала
ChannelLayout : L R
Частота : 48,0 КГц
Частота кадров : 31,250 кадров/сек (1536 SPF)
Метод сжатия : С потерями
Размер потока : 148 Мбайт (5%)
Заголовок : MVO
Язык : Russian
ServiceKind/String : Complete Main
Default : Да
Forced : Нет

Аудио #2
Идентификатор : 3
Формат : AC-3
Формат/Информация : Audio Coding 3
Коммерческое название : Dolby Digital
Идентификатор кодека : A_AC3
Продолжительность : 1 ч. 47 м.
Вид битрейта : Постоянный
Битрейт : 192 Кбит/сек
Каналы : 2 канала
ChannelLayout : L R
Частота : 48,0 КГц
Частота кадров : 31,250 кадров/сек (1536 SPF)
Метод сжатия : С потерями
Размер потока : 148 Мбайт (5%)
Заголовок : original
Язык : French
ServiceKind/String : Complete Main
Default : Нет
Forced : Нет

Текст #1
Идентификатор : 4
Формат : UTF-8
Идентификатор кодека : S_TEXT/UTF8
Идентификатор кодека/Информация : UTF-8 Plain Text
Продолжительность : 1 ч. 44 м.
Битрейт : 83 бит/сек
ElementCount : 1125
Размер потока : 63,8 Кбайт (0%)
Заголовок : русские
Язык : Russian
Default : Нет
Forced : Нет

Текст #2
Идентификатор : 5
Формат : UTF-8
Идентификатор кодека : S_TEXT/UTF8
Идентификатор кодека/Информация : UTF-8 Plain Text
Продолжительность : 1 ч. 44 м.
Битрейт : 53 бит/сек
ElementCount : 1200
Размер потока : 41,2 Кбайт (0%)
Заголовок : французские
Язык : French
Default : Нет
Forced : Нет

Меню
00:00:00.000 : en:
00:10:20.870 : en:
00:20:11.126 : en:
00:30:54.185 : en:
00:40:22.169 : en:
00:46:55.020 : en:
00:52:33.650 : en:
01:03:30.473 : en:
01:16:49.104 : en:
01:27:16.356 : en:
01:35:20.381 : en:
01:44:37.521 : en:
planb.fun



Скачать Моя девочка не хочет... через торрент https://d.radikal.ru/d25/2003/39/a66e2e7769a0.jpg Скачать фильм Моя девочка не хочет... через торрент бесплантно в хорошем качестве О фильме: Главная героиня Лена только что разошлась с мужем. Муж Найджел пытается получить опеку над детьми. Лена бросает работу в клинике ... 5 10 1
Торрент: Зарегистрирован [2020-03-22 06:40] · скачан: 4 раз
Статус: √ проверено
Размер: 2.64 GB
Как cкачать? Как скачать Моя девочка не хочет... через торрент | UTorrent

28-11-2019 20:33  

Отключить всю рекламу на сайте

    Дорогой пользователь! Огромная просьба, поблагодарите релизера, оцените раздачу и оставьте свои комментарий, если Вы скачали Моя девочка не хочет... через торрент бесплатно! Внесите свою лепту в развитие PiratBit!
    Комментировать посты могут только пользователи прошедшие не сложную регистрацию
    Показать сообщения:    

    Моя девочка не хочет... через торрент
    Скачать бесплатно Моя девочка не хочет...
    Моя девочка не хочет... скачать торрент
    Моя девочка не хочет... смотреть онлайн
    Cкачать фильм Моя девочка не хочет... бесплатно
    Моя девочка не хочет... скачать торрент в хорошем качестве
    Моя девочка не хочет... смотреть онлайн бесплатно в хорошем качестве


    Вы не можете начинать темы
    Вы не можете отвечать на сообщения
    Вы не можете редактировать свои сообщения
    Вы не можете удалять свои сообщения
    Вы не можете голосовать в опросах
    Вы не можете прикреплять файлы к сообщениям
    Вы можете скачивать файлы